.. AX0093 ..

> Charles Mingus - Mingus - 1960 (2496.LP) <

rip by 4X2496E55 with:

VPI HW-16.5 HW16.5 LP cleaning machine
Technics SL-1200 MK2
Nagaoka MP50H
DIY Pre Phono v.3
ZOOM H1

Date of rip: 05/01/2011


http://v2496.blogspot.com/


--------------------------------------------------------------------------------
Analyzed: Charles Mingus / Mingus
--------------------------------------------------------------------------------

DR Peak RMS Duration Track
--------------------------------------------------------------------------------
DR13 -0.25 dB -15.91 dB 19:46 A1-MDM
DR13 -0.12 dB -18.35 dB 13:21 B1-Stormy Weather
DR12 -0.12 dB -15.38 dB 6:41 B2-Lock 'Em Up
--------------------------------------------------------------------------------

Number of tracks: 3
Official DR value: DR13

Samplerate: 96000 Hz
Channels: 1
Bits per sample: 24
Bitrate: 1376 kbps
Codec: FLAC
================================================================================




Total time: 39:48
Enjoy the site? All donations are appreciated

Free Text Host is brought to you by Dagon Design
This site contains no adware, spyware, or popups
Questions? Comments?     Privacy Policy     Report abuse here