.. AX0076 ..

> Roscoe Mitchell, Tom Buckner, Gerald Oshita - Space - 1984 (2496.LP) <

rip by 4X2496E55 with:

VPI HW-16.5 HW16.5 LP cleaning machine
Nagaoka GL-601 Stabilizer
Nagaoka GL-602 Stabilizer
Technics SL-1200 MK2 (All Pure Silver Cabled)
Goldring 2300
DIY Pre Phono VSPS v.4 (Mundorf M-Caps Supreme Silver/Gold/Oil)
ZOOM H1

Date of rip: 09/12/2011


http://v2496.blogspot.com/


--------------------------------------------------------------------------------
Analyzed: Roscoe Mitchell / Tom Buckner / Gerald Oshita / Space
--------------------------------------------------------------------------------

DR Peak RMS Duration Track
--------------------------------------------------------------------------------
DR15 0.00 dB -17.75 dB 3:29 A1-An Interesting Breakfast Conversation
DR17 0.00 dB -23.46 dB 9:55 A2-Live At The Public Theatre, I
DR13 -0.31 dB -18.46 dB 2:19 A3-SVSA, Scene 1
DR15 0.00 dB -19.94 dB 5:30 A4-Live At The Public Theatre, II
DR18 0.00 dB -22.67 dB 9:11 B1-Shapes
DR14 -0.31 dB -21.65 dB 4:30 B2-Phonics
DR14 0.00 dB -18.65 dB 7:14 B3-Journeys
--------------------------------------------------------------------------------

Number of tracks: 7
Official DR value: DR15

Samplerate: 96000 Hz
Channels: 2
Bits per sample: 24
Bitrate: 2304 kbps
Codec: FLAC
================================================================================




Total time: 42:11

Enjoy the site? All donations are appreciated

Free Text Host is brought to you by Dagon Design
This site contains no adware, spyware, or popups
Questions? Comments?     Privacy Policy     Report abuse here