.. AX0086 ..

> Martin Denny - Exotica (Mono) - 1956 (2496.LP) <

rip by 4X2496E55 with:

VPI HW-16.5 HW16.5 LP cleaning machine
Nagaoka GL-601 Stabilizer
Nagaoka GL-602 Stabilizer
Technics SL-1200 MK2 (All Pure Silver Cabled)
Nagaoka MP20H
Kenwood L-1000C
ZOOM H1




Date of rip: 09/17/2011


http://v2496.blogspot.com/


--------------------------------------------------------------------------------
Analyzed: Martin Denny / Exotica
--------------------------------------------------------------------------------

DR Peak RMS Duration Track
--------------------------------------------------------------------------------
DR11 -3.67 dB -17.45 dB 3:40 A1-Quiet Village
DR12 -2.83 dB -18.99 dB 2:21 A2-Return To Paradise
DR12 -2.29 dB -17.06 dB 2:16 A3-Hong Kong Blues
DR11 -3.67 dB -17.95 dB 2:51 A4-Busy Port
DR10 -4.27 dB -17.73 dB 2:25 A5-Lotus Land
DR11 -2.99 dB -17.38 dB 1:57 A6-Similau
DR11 -2.12 dB -15.96 dB 3:07 B1-Stone God
DR11 -3.00 dB -18.92 dB 1:47 B2-Jungle Flower
DR11 -3.02 dB -17.20 dB 2:01 B3-China Nights
DR9 -5.21 dB -16.74 dB 2:08 B4-Ah Me Furi
DR10 -5.09 dB -19.09 dB 3:11 B5-Waipio
DR12 -3.46 dB -18.33 dB 2:28 B6-Love Dance
--------------------------------------------------------------------------------

Number of tracks: 12
Official DR value: DR11

Samplerate: 96000 Hz
Channels: 1
Bits per sample: 24
Bitrate: 1322 kbps
Codec: FLAC
================================================================================




Total time: 30:17

Enjoy the site? All donations are appreciated

Free Text Host is brought to you by Dagon Design
This site contains no adware, spyware, or popups
Questions? Comments?     Privacy Policy     Report abuse here