.. AX0101 ..

> Al Jarreau - Heart's Horizon - 1988 (2496.LP) <

rip by 4X2496E55 with:

VPI HW-16.5 HW16.5 LP cleaning machine
Nagaoka GL-601 Stabilizer
Nagaoka GL-602 Stabilizer
Technics SL-1200 MK2 (All Pure Silver Cabled)
Ortofon 2M Red
DIY Pre Phono v.5 Tubes: 2x ECC83 | Caps: Mundorf M-Caps Supreme
ZOOM H1

Date of rip: 09/28/2011


http://v2496.blogspot.com/


--------------------------------------------------------------------------------
Analyzed: Al Jarreau / Heart's Horizon
--------------------------------------------------------------------------------

DR Peak RMS Duration Track
--------------------------------------------------------------------------------
DR11 -0.14 dB -14.12 dB 3:57 A1-All Or Nothing At All
DR9 -0.46 dB -12.85 dB 4:38 A2-So Good
DR10 -0.91 dB -13.74 dB 4:44 A3-All Of My Love
DR12 -0.82 dB -15.79 dB 5:21 A4-Pleasure Over Pain
DR12 -4.94 dB -21.57 dB 1:46 A5-Yo' Jeans
DR11 -0.20 dB -13.32 dB 4:34 A6-Way To Your Heart
DR12 -0.88 dB -15.23 dB 4:42 B1-One Way
DR9 -0.33 dB -12.29 dB 3:46 B2-10K Hi
DR11 -1.18 dB -14.21 dB 4:11 B3-I Must Have Been A Fool
DR10 -0.49 dB -14.97 dB 3:36 B4-More Love
DR12 -0.99 dB -15.21 dB 4:13 B5-Killer Love
DR12 -1.06 dB -16.75 dB 4:39 B6-Heart's Horizon
--------------------------------------------------------------------------------

Number of tracks: 12
Official DR value: DR11

Samplerate: 96000 Hz
Channels: 2
Bits per sample: 24
Bitrate: 2826 kbps
Codec: FLAC
================================================================================




Total time: 50:06
Enjoy the site? All donations are appreciated

Free Text Host is brought to you by Dagon Design
This site contains no adware, spyware, or popups
Questions? Comments?     Privacy Policy     Report abuse here