.. AX0099 ..

> Goblin - Profondo Rosso - 1975 (2496.LP) <

rip by 4X2496E55 with:

VPI HW-16.5 HW16.5 LP cleaning machine
Nagaoka GL-601 Stabilizer
Nagaoka GL-602 Stabilizer
Technics SL-1200 MK2
Shure V15IV
DIY Pre Phono v.4.2 | Caps: Mundorf M-Caps Supreme
ZOOM H1

Date of rip: 06/02/2011


http://v2496.blogspot.com/


--------------------------------------------------------------------------------
Analyzed: Goblin / Profondo Rosso
--------------------------------------------------------------------------------

DR Peak RMS Duration Track
--------------------------------------------------------------------------------
DR9 -0.65 dB -13.69 dB 3:43 A1-Progondo Rosso
DR11 -1.15 dB -15.21 dB 4:05 A2-Death Dies
DR12 -1.77 dB -18.47 dB 6:22 A3-Mad Puppet
DR11 -0.30 dB -16.02 dB 5:00 B1-Wild Session
DR11 -0.37 dB -15.40 dB 5:48 B2-Deep Shadows
DR12 -2.66 dB -19.84 dB 2:09 B3-School at Night
DR10 -11.32 dB -25.82 dB 1:52 B4-Gianna
--------------------------------------------------------------------------------

Number of tracks: 7
Official DR value: DR11

Samplerate: 96000 Hz
Channels: 2
Bits per sample: 24
Bitrate: 2207 kbps
Codec: FLAC
================================================================================




Total time: 28:59
Enjoy the site? All donations are appreciated

Free Text Host is brought to you by Dagon Design
This site contains no adware, spyware, or popups
Questions? Comments?     Privacy Policy     Report abuse here