Format : Matroska
Format version : Version 4 / Version 2
File size : 6.58 GiB
Duration : 1 h 37 min
Overall bit rate : 9 609 kb/s
Encoded date : UTC 2018-06-06 07:11:46
Writing application : mkvmerge v17.0.0 ( Be Ur Friend ) 64-bit
Writing library : libebml v1.3.5 + libmatroska v1.4.8

Video
ID : 1
Format : AVC
Format/Info : Advanced Video Codec
Format profile : High@L4.1
Format settings, CABAC : Yes
Format settings, RefFrames : 4 frames
Codec ID : V_MPEG4/ISO/AVC
Duration : 1 h 37 min
Bit rate : 8 072 kb/s
Width : 1 920 pixels
Height : 1 080 pixels
Display aspect ratio : 16:9
Frame rate mode : Constant
Frame rate : 23.976 (24000/1001) FPS
Color space : YUV
Chroma subsampling : 4:2:0
Bit depth : 8 bits
Scan type : Progressive
Bits/(Pixel*Frame) : 0.162
Stream size : 5.52 GiB (84%)
Writing library : x264 core 155 r2901 7d0ff22
Encoding settings : cabac=1 / ref=4 / deblock=1:-3:-3 / analyse=0x3:0x113 / me=umh / subme=8 / psy=1 / psy_rd=1.00:0.00 / mixed_ref=1 / me_range=32 / chroma_me=1 / trellis=1 / 8x8dct=1 / cqm=0 / deadzone=21,11 / fast_pskip=1 / chroma_qp_offset=-2 / threads=18 / lookahead_threads=3 / sliced_threads=0 / nr=0 / decimate=1 / interlaced=0 / bluray_compat=0 / constrained_intra=0 / bframes=3 / b_pyramid=2 / b_adapt=2 / b_bias=0 / direct=3 / weightb=1 / open_gop=0 / weightp=2 / keyint=240 / keyint_min=24 / scenecut=40 / intra_refresh=0 / rc_lookahead=50 / rc=2pass / mbtree=1 / bitrate=8072 / ratetol=1.0 / qcomp=0.60 / qpmin=0 / qpmax=69 / qpstep=4 / cplxblur=20.0 / qblur=0.5 / ip_ratio=1.40 / aq=3:0.80
Default : Yes
Forced : No

Audio
ID : 2
Format : DTS
Format/Info : Digital Theater Systems
Mode : 16
Format settings, Endianness : Big
Codec ID : A_DTS
Duration : 1 h 37 min
Bit rate mode : Constant
Bit rate : 1 509 kb/s
Channel(s) : 6 channels
Channel positions : Front: L C R, Side: L R, LFE
Sampling rate : 48.0 kHz
Frame rate : 93.750 FPS (512 SPF)
Bit depth : 24 bits
Compression mode : Lossy
Stream size : 1.03 GiB (16%)
Language : English
Default : Yes
Forced : No

Text #1
ID : 3
Format : UTF-8
Codec ID : S_TEXT/UTF8
Codec ID/Info : UTF-8 Plain Text
Duration : 1 h 32 min
Bit rate : 61 b/s
Count of elements : 1244
Stream size : 41.4 KiB (0%)
Language : English
Default : No
Forced : No

Text #2
ID : 4
Format : PGS
Muxing mode : zlib
Codec ID : S_HDMV/PGS
Codec ID/Info : Picture based subtitle format used on BDs/HD-DVDs
Duration : 1 h 32 min
Bit rate : 66.7 kb/s
Count of elements : 2898
Stream size : 44.3 MiB (1%)
Language : Thai
Default : Yes
Forced : No

Menu
00:00:00.000 : en:00:00:00.000
00:04:18.383 : en:00:04:18.383
00:10:18.243 : en:00:10:18.243
00:14:55.269 : en:00:14:55.269
00:19:17.907 : en:00:19:17.907
00:24:28.801 : en:00:24:28.801
00:31:32.474 : en:00:31:32.474
00:37:49.559 : en:00:37:49.559
00:40:04.193 : en:00:40:04.193
00:47:55.748 : en:00:47:55.748
00:51:02.017 : en:00:51:02.017
00:56:11.326 : en:00:56:11.326
01:02:27.494 : en:01:02:27.494
01:06:31.571 : en:01:06:31.571
01:11:22.195 : en:01:11:22.195
01:17:28.769 : en:01:17:28.769
01:22:39.705 : en:01:22:39.705
01:26:15.212 : en:01:26:15.212
01:28:33.975 : en:01:28:33.975
01:33:30.688 : en:01:33:30.688
Enjoy the site? All donations are appreciated

Free Text Host is brought to you by Dagon Design
This site contains no adware, spyware, or popups
Questions? Comments?     Privacy Policy     Report abuse here