.. AX0071b ..

> Michael Jackson - Thriller - 1982 (2496.LP) <

rip by 4X2496E55 with:

VPI HW-16.5 HW16.5 LP cleaning machine
Nagaoka GL-601 Stabilizer
Nagaoka GL-602 Stabilizer
Technics SL-1200 MK2
Nagaoka MP50H
DIY Pre Phono v.5 Tubes: 2x ECC83 | Caps: Mundorf M-Caps Supreme Silver/Gold)
ZOOM H1

Date of rip: 10/10/2011


http://v2496.blogspot.com/


--------------------------------------------------------------------------------
Analyzed: Michael Jackson / Thriller
--------------------------------------------------------------------------------

DR Peak RMS Duration Track
--------------------------------------------------------------------------------
DR14 -0.71 dB -15.86 dB 6:02 A1-Wanna Be Startin' Somethin'
DR14 -0.56 dB -16.88 dB 4:20 A2-Baby Be Mine
DR13 -1.43 dB -17.55 dB 3:42 A3-The Girl Is Mine (With Paul McCartney)
DR14 -0.09 dB -16.02 dB 5:57 A4-Thriller
DR14 -0.63 dB -17.18 dB 4:18 B1-Beat It
DR14 -0.77 dB -17.16 dB 4:56 B2-Billie Jean
DR13 -1.97 dB -16.76 dB 4:05 B3-Human Nature
DR14 -1.03 dB -17.59 dB 3:58 B4-P. Y. T. (Pretty Young Thing)
DR14 -1.82 dB -19.75 dB 4:57 B5-The Lady In My Life
--------------------------------------------------------------------------------

Number of tracks: 9
Official DR value: DR14

Samplerate: 96000 Hz
Channels: 2
Bits per sample: 24
Bitrate: 2556 kbps
Codec: FLAC
================================================================================




Total time: 42:17
Enjoy the site? All donations are appreciated

Free Text Host is brought to you by Dagon Design
This site contains no adware, spyware, or popups
Questions? Comments?     Privacy Policy     Report abuse here