Unique ID : 265106082612051864520201954538491973427 (0xC7719304F16A9ECDFF5C08FEC1B78F33)
Format : Matroska
Format version : Version 4 / Version 2
File size : 5.86 GiB
Duration : 2 h 23 min
Overall bit rate : 5 862 kb/s
Movie name : Detroit.2017.1080p.WEB-DL.DD5.1.H264-FGT
Encoded date : UTC 2018-08-27 12:19:52
Writing application : mkvmerge v26.0.0 ( In The Game ) 64-bit
Writing library : libebml v1.3.6 + libmatroska v1.4.9
Cover : Yes
Attachments : cover_land.jpg / small_cover.jpg / small_cover_land.jpg / cover.jpg

Video
ID : 1
Format : AVC
Format/Info : Advanced Video Codec
Format profile : High@L4
Format settings, CABAC : Yes
Format settings, ReFrames : 4 frames
Codec ID : V_MPEG4/ISO/AVC
Duration : 2 h 23 min
Bit rate : 5 267 kb/s
Width : 1 920 pixels
Height : 1 038 pixels
Display aspect ratio : 1.85:1
Frame rate mode : Constant
Frame rate : 23.976 (23976/1000) FPS
Color space : YUV
Chroma subsampling : 4:2:0
Bit depth : 8 bits
Scan type : Progressive
Bits/(Pixel*Frame) : 0.110
Stream size : 5.26 GiB (90%)
Title : Detroit.2017.1080p.WEB-DL.DD5.1.H264-FGT
Language : English
Default : Yes
Forced : No
Color range : Limited
Color primaries : BT.709
Transfer characteristics : BT.709
Matrix coefficients : BT.709

Audio #1
ID : 2
Format : AAC
Format/Info : Advanced Audio Codec
Format profile : LC
Codec ID : A_AAC
Duration : 2 h 23 min
Bit rate : 192 kb/s
Channel(s) : 2 channels
Channel positions : Front: L R
Sampling rate : 48.0 kHz
Frame rate : 46.875 FPS (1024 spf)
Compression mode : Lossy
Delay relative to video : 1 s 0 ms
Stream size : 200 MiB (3%)
Language : Thai
Default : Yes
Forced : No

Audio #2
ID : 3
Format : AC-3
Format/Info : Audio Coding 3
Mode extension : CM (complete main)
Format settings, Endianness : Big
Codec ID : A_AC3
Duration : 2 h 23 min
Bit rate mode : Constant
Bit rate : 384 kb/s
Channel(s) : 6 channels
Channel positions : Front: L C R, Side: L R, LFE
Sampling rate : 48.0 kHz
Frame rate : 31.250 FPS (1536 spf)
Compression mode : Lossy
Stream size : 393 MiB (7%)
Title : Detroit.2017.1080p.WEB-DL.DD5.1.H264-FGT
Language : English
Default : No
Forced : No

Text #1
ID : 4
Format : VobSub
Muxing mode : zlib
Codec ID : S_VOBSUB
Codec ID/Info : Picture based subtitle format used on DVDs
Duration : 2 h 14 min
Bit rate : 11.0 kb/s
Count of elements : 2078
Stream size : 10.6 MiB (0%)
Title : Thai - Subtitle By Unknown
Language : Thai
Default : Yes
Forced : No

Text #2
ID : 5
Format : UTF-8
Codec ID : S_TEXT/UTF8
Codec ID/Info : UTF-8 Plain Text
Duration : 2 h 14 min
Bit rate : 142 b/s
Count of elements : 2078
Stream size : 140 KiB (0%)
Title : Thai.SRT - Subtitle By Unknown
Language : Thai
Default : No
Forced : No

Text #3
ID : 6
Format : VobSub
Muxing mode : zlib
Codec ID : S_VOBSUB
Codec ID/Info : Picture based subtitle format used on DVDs
Duration : 2 h 14 min
Bit rate : 12.9 kb/s
Count of elements : 2526
Stream size : 12.3 MiB (0%)
Title : English
Language : English
Default : No
Forced : No

Menu
00:00:00.000 : en:Chapter 01
00:04:03.827 : en:Chapter 02
00:09:09.591 : en:Chapter 03
00:15:04.529 : en:Chapter 04
00:25:59.392 : en:Chapter 05
00:32:22.650 : en:Chapter 06
00:36:07.124 : en:Chapter 07
00:41:02.794 : en:Chapter 08
00:49:55.993 : en:Chapter 09
00:55:25.113 : en:Chapter 10
00:58:57.283 : en:Chapter 11
01:06:07.963 : en:Chapter 12
01:10:43.196 : en:Chapter 13
01:14:17.410 : en:Chapter 14
01:25:03.848 : en:Chapter 15
01:28:47.613 : en:Chapter 16
01:32:58.363 : en:Chapter 17
01:39:38.471 : en:Chapter 18
01:48:54.193 : en:Chapter 19
01:53:57.663 : en:Chapter 20
01:59:16.565 : en:Chapter 21
02:04:46.770 : en:Chapter 22
02:10:14.264 : en:Chapter 23
02:14:54.127 : en:Chapter 24
Enjoy the site? All donations are appreciated

Free Text Host is brought to you by Dagon Design
This site contains no adware, spyware, or popups
Questions? Comments?     Privacy Policy     Report abuse here