ormat : Matroska
Format version : Version 4
File size : 4.14 GiB
Duration : 1 h 58 min
Overall bit rate : 5 018 kb/s
Movie name : Ant.Man.and.the.Wasp.2018.1080p.WEB-DL.DD5.1.H264-FGT
Encoded date : UTC 2018-10-02 18:24:41
Writing application : mkvmerge v27.0.0 ( Metropolis ) 64-bit
Writing library : libebml v1.3.6 + libmatroska v1.4.9
Cover : Yes
Attachments : cover_land.jpg / small_cover.jpg / small_cover_land.jpg / cover.jpg

Video
ID : 1
Format : AVC
Format/Info : Advanced Video Codec
Format profile : High@L4
Format settings : CABAC / 5 Ref Frames
Format settings, CABAC : Yes
Format settings, RefFrames : 5 frames
Codec ID : V_MPEG4/ISO/AVC
Duration : 1 h 58 min
Bit rate : 4 507 kb/s
Width : 1 920 pixels
Height : 804 pixels
Display aspect ratio : 2.40:1
Frame rate mode : Constant
Frame rate : 23.976 (24000/1001) FPS
Color space : YUV
Chroma subsampling : 4:2:0
Bit depth : 8 bits
Scan type : Progressive
Bits/(Pixel*Frame) : 0.122
Stream size : 3.72 GiB (90%)
Title : Ant.Man.and.the.Wasp.2018.1080p.WEB-DL.DD5.1.H264-FGT
Language : English
Default : Yes
Forced : No
Color range : Limited
Color primaries : BT.709
Transfer characteristics : BT.709
Matrix coefficients : BT.709

Audio #1
ID : 2
Format : AC-3
Format/Info : Audio Coding 3
Commercial name : Dolby Digital
Codec ID : A_AC3
Duration : 1 h 58 min
Bit rate mode : Constant
Bit rate : 384 kb/s
Channel(s) : 6 channels
Channel layout : L R C LFE Ls Rs
Sampling rate : 48.0 kHz
Frame rate : 31.250 FPS (1536 SPF)
Bit depth : 16 bits
Compression mode : Lossy
Delay relative to video : -42 ms
Stream size : 324 MiB (8%)
Title : Eng5.1
Language : English
Service kind : Complete Main
Default : No
Forced : No

Audio #2
ID : 3
Format : AAC LC
Format/Info : Advanced Audio Codec Low Complexity
Codec ID : A_AAC-2
Duration : 1 h 58 min
Bit rate : 125 kb/s
Channel(s) : 2 channels
Channel layout : L R
Sampling rate : 44.1 kHz
Frame rate : 43.066 FPS (1024 SPF)
Compression mode : Lossy
Delay relative to video : -42 ms
Stream size : 105 MiB (2%)
Title : Thai Master
Language : Thai
Default : Yes
Forced : No

Text
ID : 4
Format : UTF-8
Codec ID : S_TEXT/UTF8
Codec ID/Info : UTF-8 Plain Text
Duration : 1 h 57 min
Bit rate : 112 b/s
Count of elements : 1766
Stream size : 96.7 KiB (0%)
Title : Thai PGS
Language : Thai
Default : Yes
Forced : No

Menu
00:00:00.000 : en:Prologue
00:04:02.000 : en:World s Greatest Grandma
00:10:16.000 : en:Easy Peasy
00:13:39.000 : en:Quantum Entanglement
00:21:25.000 : en:Kitchen Conflict
00:29:07.000 : en:Bill Foster
00:36:09.000 : en:Student Body
00:40:56.000 : en:Molecular Disequilibrium
00:50:17.000 : en:Truth Serum
00:58:59.000 : en:Help From Janet
01:04:56.000 : en:Partners
01:12:54.000 : en:Misdirection
01:18:32.000 : en:San Francisco Car Chase
01:24:45.000 : en:Giant-Man
01:29:47.000 : en:The Quantum Void
01:36:16.000 : en:Extraction
01:43:35.000 : en:Happy Endings
01:46:59.000 : en:End Credits
Enjoy the site? All donations are appreciated

Free Text Host is brought to you by Dagon Design
This site contains no adware, spyware, or popups
Questions? Comments?     Privacy Policy     Report abuse here