.. AX0079 ..

> Eddie Condon And His All-Stars - Jammin' At Condon's - 1958 (2496.LP) <

rip by 4X2496E55 with:

VPI HW-16.5 HW16.5 LP cleaning machine
Nagaoka GL-601 Stabilizer
Nagaoka GL-602 Stabilizer
Technics SL-1200 MK2 (All Pure Silver Cabled)
Audio Technica AT95E
DIY Pre Phono VSPS v.4 (Mundorf M-Caps Supreme Silver/Gold/Oil)
ZOOM H1

Date of rip: 09/13/2011


http://v2496.blogspot.com/


--------------------------------------------------------------------------------
Analyzed: Eddie Condon And His All-Stars / Jammin' At Condon's
--------------------------------------------------------------------------------

DR Peak RMS Duration Track
--------------------------------------------------------------------------------
DR13 -0.76 dB -16.98 dB 7:14 A1-There'll Be Some Changes Made
DR12 0.00 dB -16.34 dB 12:50 A2-How Come You Do Me Like You Do
DR13 -0.02 dB -15.73 dB 5:40 B1-Blues
DR14 -0.89 dB -18.69 dB 7:35 B2-Tin Roof Blues
DR12 -0.28 dB -15.81 dB 5:32 B3-When My Sugar Walks Down The Street
--------------------------------------------------------------------------------

Number of tracks: 5
Official DR value: DR13

Samplerate: 96000 Hz
Channels: 2
Bits per sample: 24
Bitrate: 2852 kbps
Codec: FLAC
================================================================================




Total time: 38:53


Credits:

Bass – Al Hall
Clarinet – Ed Hall*, Peanuts Hucko
Cornet – Wild Bill Davidson*
Drums – Cliff Leeman
Guitar – Eddie Condon
Horns [Alto Horn] – Dick Cary
Other [Liner Notes] – George Avakian
Piano – Gene Schroeder
Saxophone [Tenor] – Bud Freeman
Trombone – Cutty Cutshall, Lou McGarity
Trumpet – Billy Butterfield


Notes:

Original Columbia "Six-Eye" Label.


Enjoy the site? All donations are appreciated

Free Text Host is brought to you by Dagon Design
This site contains no adware, spyware, or popups
Questions? Comments?     Privacy Policy     Report abuse here