.. AX0070 ..

> King Floyd - Think About It - 1973 (2496.LP) <

rip by 4X2496E55 with:

VPI HW-16.5 HW16.5 LP cleaning machine
Nagaoka GL-601 Stabilizer
Nagaoka GL-602 Stabilizer
Technics SL-1200 MK2
Ortofon MC-3 Turbo
DIY Pre Phono VSPS v.3.2
ZOOM H1

Date of rip: 09/10/2011


http://v2496.blogspot.com/


--------------------------------------------------------------------------------
Analyzed: King Floyd / Think About It
--------------------------------------------------------------------------------

DR Peak RMS Duration Track
--------------------------------------------------------------------------------
DR13 -0.01 dB -15.86 dB 6:36 A1-My Girl
DR12 -0.16 dB -15.06 dB 3:20 A2-Here It Is
DR12 -0.16 dB -14.74 dB 3:05 A3-Do Your Feeling
DR13 -0.31 dB -15.08 dB 2:49 A4-It's Not What You Say
DR12 -0.42 dB -15.77 dB 2:28 A5-Woman Don't Go Astray
DR12 -0.27 dB -14.49 dB 3:21 B1-Think About It
DR11 -0.20 dB -13.30 dB 3:24 B2-Thank You
DR12 0.00 dB -14.63 dB 2:32 B3-Hard To Handle
DR12 -0.36 dB -15.90 dB 3:45 B4-You've Got Me
DR12 -0.40 dB -13.73 dB 2:42 B5-Everybody Needs Somebody
--------------------------------------------------------------------------------

Number of tracks: 10
Official DR value: DR12

Samplerate: 96000 Hz
Channels: 2
Bits per sample: 24
Bitrate: 3005 kbps
Codec: FLAC
================================================================================




Total time: 34:10


Credits:

Arranged By – Wardell Quezergue
Design [Cover Design] – Haig Adishian
Photography – Joel Brodsky
Producer – Elijah Walker


Notes:

Recorded at Malaco Studios, Jackson, Mississippi.


Enjoy the site? All donations are appreciated

Free Text Host is brought to you by Dagon Design
This site contains no adware, spyware, or popups
Questions? Comments?     Privacy Policy     Report abuse here