.. AX0085 ..

> Martin Denny - Exotica (Stereo) - 1956 (2496.LP) <

rip by 4X2496E55 with:

VPI HW-16.5 HW16.5 LP cleaning machine
Nagaoka GL-601 Stabilizer
Nagaoka GL-602 Stabilizer
Technics SL-1200 MK2 (All Pure Silver Cabled)
Nagaoka MP20H
DIY Pre Phono VSPS v.4 (Mundorf M-Caps Supreme Silver/Gold/Oil)
ZOOM H1



NOTE:

It's my fault! this version is a fake
"electronically enhanced" stereo version.
If you hate, don't download it.


Date of rip: 09/18/2011


http://v2496.blogspot.com/


--------------------------------------------------------------------------------
Analyzed: Martin Denny / Exotica
--------------------------------------------------------------------------------

DR Peak RMS Duration Track
--------------------------------------------------------------------------------
DR12 -1.68 dB -17.33 dB 3:47 A1-Quiet Village
DR13 -2.14 dB -18.44 dB 2:20 A2-Return To Paradise
DR13 -0.51 dB -16.46 dB 2:17 A3-Hong Kong Blues
DR12 -1.70 dB -17.12 dB 2:52 A4-Busy Port
DR10 -2.35 dB -16.78 dB 2:25 A5-Lotus Land
DR12 -1.90 dB -16.93 dB 1:59 A6-Similau
DR12 -0.31 dB -15.24 dB 3:09 B1-Stone God
DR13 -0.15 dB -18.57 dB 1:48 B2-Jungle Flower
DR11 -2.06 dB -16.57 dB 2:04 B3-China Nights
DR10 -4.52 dB -16.89 dB 2:08 B4-Ah Me Furi
DR10 -4.51 dB -19.11 dB 3:13 B5-Waipio
DR11 -3.01 dB -18.41 dB 2:30 B6-Love Dance
--------------------------------------------------------------------------------

Number of tracks: 12
Official DR value: DR12

Samplerate: 96000 Hz
Channels: 2
Bits per sample: 24
Bitrate: 2580 kbps
Codec: FLAC
================================================================================




Total time: 30:37

Enjoy the site? All donations are appreciated

Free Text Host is brought to you by Dagon Design
This site contains no adware, spyware, or popups
Questions? Comments?     Privacy Policy     Report abuse here