.. AX0087 ..

> Max Roach - Drums Unlimited (That's Jazz 36) - 1978 (2496.LP) <

rip by 4X2496E55 with:

VPI HW-16.5 HW16.5 LP cleaning machine
Nagaoka GL-601 Stabilizer
Nagaoka GL-602 Stabilizer
Technics SL-1200 MK2 (All Pure Silver Cabled)
Nagaoka MP20H
Kenwood L-1000C
ZOOM H1

Date of rip: 09/19/2011


http://v2496.blogspot.com/


--------------------------------------------------------------------------------
Analyzed: Max Roach / Drums Unlimited
--------------------------------------------------------------------------------

DR Peak RMS Duration Track
--------------------------------------------------------------------------------
DR13 -6.46 dB -26.70 dB 3:34 A1-The Drum Also Waltzes
DR15 -1.98 dB -21.76 dB 12:43 A2-Nommo
DR13 -6.06 dB -25.43 dB 4:22 A3-Drums Unlimited
DR14 -1.96 dB -19.34 dB 5:21 B1-St. Louis Blues
DR16 -5.74 dB -25.76 dB 3:03 B2-For Big Sid
DR15 -2.69 dB -22.09 dB 12:22 B3-In The Red (A Xmas Carol)
--------------------------------------------------------------------------------

Number of tracks: 6
Official DR value: DR14

Samplerate: 96000 Hz
Channels: 2
Bits per sample: 24
Bitrate: 2734 kbps
Codec: FLAC
================================================================================




Total time: 41:28

Enjoy the site? All donations are appreciated

Free Text Host is brought to you by Dagon Design
This site contains no adware, spyware, or popups
Questions? Comments?     Privacy Policy     Report abuse here