.. AX0072 ..

> Archie Shepp - Live In San Francisco - 1966 (2496.LP) <

rip by 4X2496E55 with:

VPI HW-16.5 HW16.5 LP cleaning machine
Nagaoka GL-601 Stabilizer
Nagaoka GL-602 Stabilizer
Technics SL-1200 MK2
Nagaoka MP11
DIY Pre Phono VSPS v.3
ZOOM H1

Date of rip: 03/26/2011


http://v2496.blogspot.com/


--------------------------------------------------------------------------------
Analyzed: Archie Shepp / Live In San Francisco
--------------------------------------------------------------------------------

DR Peak RMS Duration Track
--------------------------------------------------------------------------------
DR12 -0.83 dB -16.74 dB 1:15 01-Keep Your Heart Right
DR12 -0.01 dB -15.22 dB 7:30 02-The Lady Sings The Blues
DR14 -0.56 dB -19.54 dB 5:34 03-Sylvia
DR13 -2.04 dB -19.12 dB 2:53 04-The Wedding
DR12 -0.04 dB -15.65 dB 10:23 05-Wherever June Bugs Go
DR12 -0.25 dB -16.33 dB 6:13 06-In A Sentimental Mood
--------------------------------------------------------------------------------

Number of tracks: 6
Official DR value: DR12

Samplerate: 96000 Hz
Channels: 2
Bits per sample: 24
Bitrate: 2571 kbps
Codec: FLAC
================================================================================



Total time: 33:50


Credits

Artwork By – Robert Flynn
Bass – Donald Garrett, Lewis Worrell
Drums – Beaver Harris
Engineer – Wally Heider
Photography [Back Cover] – Charles Stewart
Photography [Front Cover] – Fred Seligo
Producer – Bob Thiele
Saxophone [Tenor], Piano – Archie Shepp
Trombone – Roswell Rudd


Notes

Recorded February 19th, 1966.

Enjoy the site? All donations are appreciated

Free Text Host is brought to you by Dagon Design
This site contains no adware, spyware, or popups
Questions? Comments?     Privacy Policy     Report abuse here