.. AX0095 ..

> The Alan Parsons Project - The Turn Of A Friendly Card - 1980 (2496.LP) <

rip by 4X2496E55 with:

VPI HW-16.5 HW16.5 LP cleaning machine
Nagaoka GL-601 Stabilizer
Nagaoka GL-602 Stabilizer
Technics SL-1200 MK2 (All Pure Silver Cabled)
Audio Technica AT95E (Modified)
DIY Pre Phono v.5 Tubes: 2x ECC83 | Caps: Mundorf M-Caps Supreme
ZOOM H1

Date of rip: 10/14/2011


http://v2496.blogspot.com/


--------------------------------------------------------------------------------
Analyzed: The Alan Parsons Project / The Turn Of A Friendly Card
--------------------------------------------------------------------------------

DR Peak RMS Duration Track
--------------------------------------------------------------------------------
DR12 -1.03 dB -16.58 dB 4:56 A1-May Be A Price To Pay
DR13 -0.96 dB -17.41 dB 4:21 A2-Games People Play
DR13 -2.24 dB -18.08 dB 5:12 A3-Time
DR14 -0.19 dB -17.13 dB 4:43 A4-I Don't Wanna Go Home
DR12 -2.25 dB -17.51 dB 4:32 B1-The Gold Bug
DR14 -2.86 dB -20.69 dB 2:43 B2-The Turn Of A Friendly Card (Part One)
DR13 -1.92 dB -18.24 dB 3:15 B3-Snake Eyes
DR14 -1.38 dB -18.11 dB 2:57 B4-The Ace Of Swords
DR12 -1.37 dB -16.73 dB 4:05 B5-Nothing Left To Lose
DR12 -2.58 dB -18.26 dB 3:17 B6-The Turn Of A Friendly Card (Part Two)
--------------------------------------------------------------------------------

Number of tracks: 10
Official DR value: DR13

Samplerate: 96000 Hz
Channels: 2
Bits per sample: 24
Bitrate: 2839 kbps
Codec: FLAC
================================================================================




Total time: 40:01

Enjoy the site? All donations are appreciated

Free Text Host is brought to you by Dagon Design
This site contains no adware, spyware, or popups
Questions? Comments?     Privacy Policy     Report abuse here