.. AX0104 ..

> Jean Michel Jarre - Equinoxe - 1978 (2496.LP) <

rip by 4X2496E55 with:

VPI HW-16.5 HW16.5 LP cleaning machine
Nagaoka GL-601 Stabilizer
Nagaoka GL-602 Stabilizer
Technics SL-1200 MK2 (All Pure Silver Cabled)
Nagaoka MP50H
Yamaha AX-570 (modified Phono input v. 1.0)
ZOOM H1

Date of rip: 10/22/2011


http://v2496.blogspot.com/


--------------------------------------------------------------------------------
Analyzed: Jean Michel Jarre / Equinoxe
--------------------------------------------------------------------------------

DR Peak RMS Duration Track
--------------------------------------------------------------------------------
DR11 -0.47 dB -15.85 dB 2:23 A1-Equinoxe Part 1
DR12 -0.28 dB -17.49 dB 5:03 A2-Equinoxe Part 2
DR11 -0.55 dB -16.03 dB 5:15 A3-Equinoxe Part 3
DR12 -0.68 dB -16.59 dB 6:47 A4-Equinoxe Part 4
DR12 -0.53 dB -15.86 dB 3:46 B1-Equinoxe Part 5
DR14 -0.15 dB -16.95 dB 3:23 B2-Equinoxe Part 6
DR12 -1.95 dB -16.79 dB 7:07 B3-Equinoxe Part 7
DR12 -2.74 dB -18.64 dB 5:19 B4-Equinoxe Part 8
--------------------------------------------------------------------------------

Number of tracks: 8
Official DR value: DR12

Samplerate: 96000 Hz
Channels: 2
Bits per sample: 24
Bitrate: 2773 kbps
Codec: FLAC
================================================================================




Total time: 39:02
Enjoy the site? All donations are appreciated

Free Text Host is brought to you by Dagon Design
This site contains no adware, spyware, or popups
Questions? Comments?     Privacy Policy     Report abuse here