.. AX0090 ..

> The Rolling Stones - Beggars Banquet - 1969 (2496.LP) <

rip by 4X2496E55 with:

VPI HW-16.5 HW16.5 LP cleaning machine
Nagaoka GL-601 Stabilizer
Nagaoka GL-602 Stabilizer
Technics SL-1200 MK2 (All Pure Silver Cabled)
Nagaoka MP20H
DIY Pre Phono v.5 Tubes: 2x ECC83 | Caps: Mundorf M-Caps Supreme Silver/Gold)
ZOOM H1

Date of rip: 09/22/2011


http://v2496.blogspot.com/


--------------------------------------------------------------------------------
Analyzed: The Rolling Stones / Beggars Banquet
--------------------------------------------------------------------------------

DR Peak RMS Duration Track
--------------------------------------------------------------------------------
DR10 -1.27 dB -13.24 dB 6:26 A1-Sympathy For The Devil
DR11 -1.12 dB -14.76 dB 4:03 A2-No Expectations
DR11 -0.06 dB -13.18 dB 3:27 A3-Dear Doctor
DR9 -0.43 dB -13.08 dB 2:25 A4-Parachute Woman
DR11 -0.49 dB -13.64 dB 6:11 A5-Jig-Saw Puzzle
DR11 -1.22 dB -14.50 dB 3:20 B1-Street Fighting Man
DR11 -1.04 dB -14.38 dB 2:57 B2-Prodigal Son
DR11 -0.10 dB -14.18 dB 4:42 B3-Stray Cat Blues
DR11 -1.02 dB -15.14 dB 2:09 B4-Factory Girl
DR11 -0.95 dB -15.39 dB 4:54 B5-Salt Of The Earth
--------------------------------------------------------------------------------

Number of tracks: 10
Official DR value: DR11

Samplerate: 96000 Hz
Channels: 2
Bits per sample: 24
Bitrate: 2786 kbps
Codec: FLAC
================================================================================




Total time: 40:38
Enjoy the site? All donations are appreciated

Free Text Host is brought to you by Dagon Design
This site contains no adware, spyware, or popups
Questions? Comments?     Privacy Policy     Report abuse here