.. AX0103 ..

> Joe Jackson - Night and Day - 1982 (2496.LP) <

rip by 4X2496E55 with:

VPI HW-16.5 HW16.5 LP cleaning machine
Nagaoka GL-601 Stabilizer
Nagaoka GL-602 Stabilizer
Technics SL-1200 MK2 (All Pure Silver Cabled)
Nagaoka MP20H
DIY Pre Phono v.4.5 Tubes: 2x ECC83 | Caps: Mundorf M-Caps Supreme
ZOOM H1

Date of rip: 09/20/2011


http://v2496.blogspot.com/


--------------------------------------------------------------------------------
Analyzed: Joe Jackson / Night and Day
--------------------------------------------------------------------------------

DR Peak RMS Duration Track
--------------------------------------------------------------------------------
DR12 -1.14 dB -16.10 dB 4:02 A1-Another World
DR11 -1.09 dB -14.98 dB 4:06 A2-Chinatown
DR12 -1.44 dB -16.12 dB 3:46 A3-T.V. Age
DR12 -1.60 dB -16.51 dB 3:50 A4-Target
DR12 -1.82 dB -15.72 dB 4:11 A5-Steppin' Out
DR13 -2.78 dB -18.23 dB 4:54 B1-Breaking Us In Two
DR13 -3.80 dB -18.71 dB 6:07 B2-Cancer
DR13 -2.08 dB -20.01 dB 4:19 B3-Real Men
DR13 -2.87 dB -20.15 dB 7:04 B4-A Slow Song
--------------------------------------------------------------------------------

Number of tracks: 9
Official DR value: DR12

Samplerate: 96000 Hz
Channels: 2
Bits per sample: 24
Bitrate: 2907 kbps
Codec: FLAC
================================================================================




Total time: 42:19
Enjoy the site? All donations are appreciated

Free Text Host is brought to you by Dagon Design
This site contains no adware, spyware, or popups
Questions? Comments?     Privacy Policy     Report abuse here