.. AX0102 ..

> Imagination - Body Talk - 1981 (2496.LP) <

rip by 4X2496E55 with:

VPI HW-16.5 HW16.5 LP cleaning machine
Nagaoka GL-601 Stabilizer
Nagaoka GL-602 Stabilizer
Technics SL-1200 MK2 (All Pure Silver Cabled)
Nagaoka MP15
DIY Pre Phono v.5 Tubes: 2x ECC83 | Caps: Mundorf M-Caps Supreme
ZOOM H1

Date of rip: 10/12/2011


http://v2496.blogspot.com/


--------------------------------------------------------------------------------
Analyzed: Imagination / Body Talk
--------------------------------------------------------------------------------

DR Peak RMS Duration Track
--------------------------------------------------------------------------------
DR14 -1.12 dB -17.48 dB 6:06 A1-Body Talk
DR14 -1.37 dB -17.61 dB 7:02 A2-So Good So Right
DR14 -1.19 dB -17.92 dB 4:44 A3-Burnin' Up
DR13 -2.52 dB -18.63 dB 5:31 B1-Tell Me Do You Want My Love
DR13 -1.55 dB -17.25 dB 4:33 B2-Flashback
DR13 -3.87 dB -22.36 dB 3:57 B3-I'll Always Love You (But Don't Look Back)
DR14 -1.14 dB -17.29 dB 5:21 B4-In And Out Of Love
--------------------------------------------------------------------------------

Number of tracks: 7
Official DR value: DR14

Samplerate: 96000 Hz
Channels: 2
Bits per sample: 24
Bitrate: 2814 kbps
Codec: FLAC
================================================================================




Total time: 37:14

Enjoy the site? All donations are appreciated

Free Text Host is brought to you by Dagon Design
This site contains no adware, spyware, or popups
Questions? Comments?     Privacy Policy     Report abuse here