.. AX0042 ..

> Hindemith-Stravinsky - Concerti per Piano del XX Secolo - 1981 (2496.LP) <

rip by 4X2496E55 with:

VPI HW-16.5 HW16.5 LP cleaning machine
Nagaoka GL-602 Stabilizer
Technics SL-1200 MK2
Nagaoka MP20H
DIY Pre Phono VSPS v.3
Zoom H1

Date of rip: 06/10/2011


http://v2496.blogspot.com/




--------------------------------------------------------------------------------
Analyzed: Hindemith-Stravinsky / Concerti per Piano del XX Secolo
--------------------------------------------------------------------------------

DR Peak RMS Duration Track
--------------------------------------------------------------------------------
DR14 -1.35 dB -21.03 dB 5:46 A1-The Four Temperaments - Thema
DR12 -1.17 dB -19.48 dB 6:36 A2-The Four Temperaments - Variation I Melancolisch
DR11 -0.37 dB -16.74 dB 6:00 A3-The Four Temperaments - Variation II Sanguinisch
DR13 -4.99 dB -23.92 dB 4:18 A4-The Four Temperaments - Variation III Phlegmatisch
DR14 -0.06 dB -19.66 dB 6:54 B1-The Four Temperaments - Variation IV Cholerisch
DR15 -0.47 dB -21.32 dB 7:05 B2-Capriccio - 1er mvt - Presto
DR13 -3.19 dB -22.74 dB 5:05 B3-Capriccio - 2e mvt - Andante rapsodico
DR14 -0.20 dB -19.41 dB 5:25 B4-Capriccio - 3e mvt - Allegro capriccioso
--------------------------------------------------------------------------------

Number of tracks: 8
Official DR value: DR13

Samplerate: 96000 Hz
Channels: 2
Bits per sample: 24
Bitrate: 2040 kbps
Codec: FLAC
================================================================================




Total time: 47:12
Enjoy the site? All donations are appreciated

Free Text Host is brought to you by Dagon Design
This site contains no adware, spyware, or popups
Questions? Comments?     Privacy Policy     Report abuse here