.. AX0091 ..

> Saturday Night Fever OST - VA - 1977 (2496.LP) <

rip by 4X2496E55 with:

VPI HW-16.5 HW16.5 LP cleaning machine
Nagaoka GL-601 Stabilizer
Nagaoka GL-602 Stabilizer
Technics SL-1200 MK2 (All Pure Silver Cabled)
Nagaoka MP20H
DIY Pre Phono v.5 Tubes: 2x ECC83 | Caps: Mundorf M-Caps Supreme Silver/Gold)
ZOOM H1

Date of rip: 09/23/2011


http://v2496.blogspot.com/


--------------------------------------------------------------------------------
Analyzed: Various Artists / Saturday Night Fever
--------------------------------------------------------------------------------

DR Peak RMS Duration Track
--------------------------------------------------------------------------------
DR13 -0.04 dB -14.93 dB 4:44 A1-Stayin' Alive
DR12 -1.63 dB -16.26 dB 4:04 A2-How Deep Is Your Love
DR13 -0.53 dB -16.00 dB 3:32 A3-Night Fever
DR12 -1.33 dB -15.64 dB 3:16 A4-More Than A Woman
DR12 -0.86 dB -14.92 dB 2:58 A5-If I Can't Have You
DR12 -0.26 dB -15.80 dB 3:02 B1-A Fifth Of Beethoven
DR11 -0.62 dB -13.58 dB 3:16 B2-More Than A Woman
DR12 -0.11 dB -14.31 dB 4:44 B3-Manhattan Skyline
DR13 -1.12 dB -16.44 dB 7:51 B4-Calypso Breakdown
DR12 -1.21 dB -16.08 dB 5:11 C1-Night On Disco Mountain
DR12 -1.52 dB -16.22 dB 3:59 C2-Open Sesame
DR14 -0.07 dB -17.39 dB 3:43 C3-Jive Talkin'
DR13 -1.91 dB -17.39 dB 4:14 C4-You Should Be Dancing
DR13 -0.29 dB -17.11 dB 2:19 C5-Boogie Shoes
DR11 -0.67 dB -14.97 dB 3:50 D1-Salsation
DR11 -1.10 dB -14.19 dB 4:13 D2-K-Jee
DR14 -0.09 dB -15.89 dB 10:53 D3-Disco Inferno
--------------------------------------------------------------------------------

Number of tracks: 17
Official DR value: DR12

Samplerate: 96000 Hz
Channels: 2
Bits per sample: 24
Bitrate: 2869 kbps
Codec: FLAC
================================================================================




Total time: 75:57

Enjoy the site? All donations are appreciated

Free Text Host is brought to you by Dagon Design
This site contains no adware, spyware, or popups
Questions? Comments?     Privacy Policy     Report abuse here